img image001 image001 image001 image001 image001 image001 image001 image001 image001 image001 image001 image001 image001 image001 image001 image001
Planets Sun Sun Sun
Статистика раздачи
Автор: mari | Размер: 1.45 ГБ | Добавлен: 06 ноя 2018
Раздают: 21    Качают: 4
Скачать торрент
Скачать торрент

СообщениеДобавлено: 06 ноя 2018 

Мальчишник в Европе / Budapest


Перевод: Профессиональный (полное дублирование) iTunes, субтитры: отсутствуют
Формат: WEBDLRip-AVC, MKV, H.264, AC3
Страна: Франция, Бельгия
Режиссер: Ксавье Жанс
Жанр: комедия
Продолжительность: 01:42:19
Год выпуска: 2018
В ролях: Аликс Пуасон, Алис Белаиди, Маню Пайе, Джонатан Коэн, Од Легастелуа, Месье Пуп, Виктор Артус Соларо, Манон Аллендер

Описание: Надоела работа? Достали коллеги? Ответ очевиден - бросить все, уехать в Будапешт и начать закатывать вечеринки для холостяков. С покером, обнаженными красотками и катанием на танках. Отрыв по полной!



Видео: 1024x432 (2.40:1), 23.976 fps, AVC MPEG-4 (H.264), ~1650 kbps, 0.150 bit/pixel
Аудио: 48 kHz, AC3 Dolby Digital, 3/2 (L,C,R,l,r) + LFE ch, ~384 kbps

General
Unique ID : 132652097124353031368801939297846487780 (0x63CBDD56ABF60FB9F47A756719B0EAE4)
Complete name : C:\Users\123\Desktop\Budapest.2018.WEB-DLRip-AVC_[tfile.ru].mkv
Format : Matroska
Format version : Version 4 / Version 2
File size : 1.45 GiB
Duration : 1h 42mn
Overall bit rate mode : Constant
Overall bit rate : 2 034 Kbps
Movie name : Мальчишник в Европе. 2018 - and77200
Encoded date : UTC 2018-11-06 12:47:33
Writing application : Lavf56.36.100
Writing library : Lavf56.36.100

Video
ID : 2
Format : AVC
Format/Info : Advanced Video Codec
Format profile :
Format settings, CABAC : Yes
Format settings, ReFrames : 2 frames
Format settings, GOP : M=1, N=25
Codec ID : V_MPEG4/ISO/AVC
Duration : 1h 42mn
Bit rate mode : Constant
Bit rate : 1 650 Kbps
Width : 1 024 pixels
Height : 448 pixels
Display aspect ratio : 2.25:1
Frame rate mode : Constant
Frame rate : 23.976 fps
Color space : YUV
Chroma subsampling : 4:2:0
Bit depth : 8 bits
Scan type : Progressive
Bits/(Pixel*Frame) : 0.150
Stream size : 1.15 GiB (79%)
Language : English
Default : Yes
Forced : No
DURATION : 01:42:19.458000000
NUMBER_OF_FRAMES : 147347
NUMBER_OF_BYTES : 3613257672
_STATISTICS_WRITING_APP : mkvmerge v20.0.0 ('I Am The Sun') 64-bit
_STATISTICS_WRITING_DATE_UTC : 2018-11-06 12:47:33
_STATISTICS_TAGS : BPS DURATION NUMBER_OF_FRAMES NUMBER_OF_BYTES

Audio
ID : 1
Format : AC-3
Format/Info : Audio Coding 3
Mode extension : CM (complete main)
Format settings, Endianness : Big
Codec ID : A_AC3
Duration : 1h 42mn
Bit rate mode : Constant
Bit rate : 384 Kbps
Channel(s) : 6 channels
Channel positions : Front: L C R, Side: L R, LFE
Sampling rate : 48.0 KHz
Bit depth : 32 bits
Compression mode : Lossy
Stream size : 281 MiB (19%)
Title : iTunes
Language : Russian
Default : Yes
Forced : No
DURATION : 01:42:19.520000000
NUMBER_OF_FRAMES : 191860
NUMBER_OF_BYTES : 294696960
_STATISTICS_WRITING_APP : mkvmerge v20.0.0 ('I Am The Sun') 64-bit
_STATISTICS_WRITING_DATE_UTC : 2018-11-06 12:47:33
_STATISTICS_TAGS : BPS DURATION NUMBER_OF_FRAMES NUMBER_OF_BYTES












   Похожие торренты   Торрент   Размер 
В этой теме нет новых непрочитанных сообщений. Мальчишник в Европе / Budapest (Ксавье Жанс ) [2018, комедия , WEBDLRip] DUB

73 | 6

1.46 ГБ

В этой теме нет новых непрочитанных сообщений. Мальчишник в Европе / Budapest (Ксавье Жанс) [2018, комедия, WEBDLRip] DUB

24 | 4

1.37 ГБ

В этой теме нет новых непрочитанных сообщений. Когда мы познакомились / When We First Met (Эри Сандел) [2018, комедия, WEBDLRip] MVO

23 | 0

1.37 ГБ

В этой теме нет новых непрочитанных сообщений. А или Б / A or B (Жэнь Пэнъюань) [2018, комедия, драма, WEBDLRip] MVO

2 | 0

1.37 ГБ

В этой теме нет новых непрочитанных сообщений. Хот-Дог / Hot Dog (Торстен Кюнстлер) [2018, боевик, комедия, WEBDLRip] DUB

155 | 7

1.46 ГБ

В этой теме нет новых непрочитанных сообщений. Баха / Baja (Тони Видал) [2018, комедия, WEBDLRip] MVO

14 | 1

1.37 ГБ

В этой теме нет новых непрочитанных сообщений. Патрик / Patrick (Мэнди Флетчер) [2018, комедия, WEBDLRip] MVO

118 | 11

1.37 ГБ




Вы не можете начинать темы
Вы не можете отвечать на сообщения
Вы не можете редактировать свои сообщения
Вы не можете удалять свои сообщения
Вы не можете добавлять вложения

Перейти:  
Для Мосгорсуда, Роскомнадзора и рекламодателей: mosgorsud-torrent[собачка]yandex.ru
 Вход
ppkBB3cker v.2 © 2008-2014 @ PPK
[ Time : 0.033s | 18 Queries | GZIP : Off ]

Торрент трекер RS-torrent.com
cron