img image001 image001 image001 image001 image001 image001 image001 image001 image001 image001 image001 image001 image001 image001 image001 image001
Planets Sun Sun Sun
Статистика раздачи
Автор: mari | Размер: 1.45 ГБ | Добавлен: 06 ноя 2018
Раздают: 68    Качают: 3
Скачать торрент
Скачать торрент

СообщениеДобавлено: 06 ноя 2018 

Сексуальные хроники французской семьи / Chroniques sexuelles dune famille daujourdhui


Перевод: Профессиональный (многоголосый закадровый), субтитры: отсутствуют
Формат: HDRip-AVC, MKV, H.264, AC3
Страна: Франция
Режиссер: Жан-Марк Барр, Паскаль Арнольд
Жанр: мелодрама, комедия, эротика
Продолжительность: 01:25:06
Год выпуска: 2012
В ролях: Лейла Денио, Валери Маэс, Майлис Амру, Матиас Меллул, Летиция Фавар, Грегори Аннони, Фостен Дюбуа, Стефан Эрсоен, Нэйтан Дювал, Аделин Ребейляр

Описание: Рутинная жизнь современной семьи претерпевает основательную встряску, когда младший сын Роман оказывается пойман в классе, мастурбирующим и одновременно снимающим себя на камеру в мобильном телефоне. Роману грозит исключение из школы… Выясняется, что его действия — это часть игры, весьма популярной у школьников. До этих пор сексуальная тематика была табуирована в его семье, но теперь она становится центром обсуждения.



Видео: 1024x576 (16:9), 23.976 fps, AVC MPEG4 (x264), , ~2060 kbps avg, 0.146 bit/pixel
Аудио: 48 kHz, AC3 Dolby Digital, 3/2 (L,C,R,l,r) + LFE ch, ~384 kbps

General
Unique ID : 214063108249410720798030476498689546756 (0xA10B0E1591A0A1B7174034373C1B5A04)
Complete name : C:\Users\123\Desktop\Seksualnye.hroniki.francuzskoj.semi.2012.HDRip-AVC_[tfile.ru].mkv
Format : Matroska
Format version : Version 4 / Version 2
File size : 1.45 GiB
Duration : 1h 25mn
Overall bit rate mode : Constant
Overall bit rate : 2 444 Kbps
Encoded date : UTC 2013-10-19 10:21:05
Writing application : Lavf56.36.100
Writing library : Lavf56.36.100

Video
ID : 2
Format : AVC
Format/Info : Advanced Video Codec
Format profile :
Format settings, CABAC : Yes
Format settings, ReFrames : 2 frames
Format settings, GOP : M=1, N=25
Codec ID : V_MPEG4/ISO/AVC
Duration : 1h 25mn
Bit rate mode : Constant
Bit rate : 2 060 Kbps
Width : 1 024 pixels
Height : 576 pixels
Display aspect ratio : 16:9
Frame rate mode : Constant
Frame rate : 23.976 fps
Color space : YUV
Chroma subsampling : 4:2:0
Bit depth : 8 bits
Scan type : Progressive
Bits/(Pixel*Frame) : 0.146
Stream size : 1.20 GiB (82%)
Default : Yes
Forced : No

Audio
ID : 1
Format : AC-3
Format/Info : Audio Coding 3
Mode extension : CM (complete main)
Format settings, Endianness : Big
Codec ID : A_AC3
Duration : 1h 25mn
Bit rate mode : Constant
Bit rate : 384 Kbps
Channel(s) : 6 channels
Channel positions : Front: L C R, Side: L R, LFE
Sampling rate : 48.0 KHz
Bit depth : 32 bits
Compression mode : Lossy
Stream size : 234 MiB (16%)
Title : MVO |ЛИЦЕНЗИЯ!
Language : Russian
Default : Yes
Forced : No












   Похожие торренты   Торрент   Размер 
В этой теме нет новых непрочитанных сообщений. От семьи не убежишь / La ch'tite famille (Дэни Бун) [2018, комедия, BDRip] DUB

74 | 1

1.41 ГБ

В этой теме нет новых непрочитанных сообщений. Замуж на 2 дня / Un plan parfait (Паскаль Шомель) [2012, мелодрама, комедия, приключения, BDRip] DUB

63 | 2

2.18 ГБ

В этой теме нет новых непрочитанных сообщений. Человек, который судился с Богом / The Man Who Sued God (Марк Джофф) [2001, драма, мелодрама, комедия, HDRip] DVO

3 | 0

1.72 ГБ

В этой теме нет новых непрочитанных сообщений. Частная школа / Private School (Ноэль Блэк) [1983, мелодрама, комедия, эротика, HDTVRip-AVC] DVO

54 | 5

746.25 МБ

В этой теме нет новых непрочитанных сообщений. От семьи не убежишь / La ch'tite famille (2018) HDRip от Generalfilm | КПК | iTunes

44 | 3

405.1 МБ

В этой теме нет новых непрочитанных сообщений. Частная практика, 6 сезон 1-13 серии из 13 / Private Practice [Fox Life] (Марк Тинкер) [2012-2013, драма, мелодрама, комедия, WEB-DLRip, P]

1 | 0

5.72 ГБ

В этой теме нет новых непрочитанных сообщений. Персонаж / Stranger Than Fiction (Марк Форстер) [2006, фэнтези, драма, мелодрама, комедия, BDRip-AVC] DUB

3 | 0

3.13 ГБ




Вы не можете начинать темы
Вы не можете отвечать на сообщения
Вы не можете редактировать свои сообщения
Вы не можете удалять свои сообщения
Вы не можете добавлять вложения

Перейти:  
Для Мосгорсуда, Роскомнадзора и рекламодателей: mosgorsud-torrent[собачка]yandex.ru
 Вход
ppkBB3cker v.2 © 2008-2014 @ PPK
[ Time : 0.027s | 19 Queries | GZIP : Off ]

Торрент трекер RS-torrent.com
cron