img image001 image001 image001 image001 image001 image001 image001 image001 image001 image001 image001 image001 image001 image001 image001 image001
Planets Sun Sun Sun
Статистика раздачи
Автор: mari | Размер: 1.45 ГБ | Добавлен: 06 ноя 2018
Раздают: 2    Качают: 0
Скачать торрент
Скачать торрент

СообщениеДобавлено: 06 ноя 2018 

7 женщин / 7 Women


Перевод: Профессиональный (многоголосый закадровый), субтитры: отсутствуют
Формат: DVDRip-AVC, MKV, H.264, AC3
Страна: США
Режиссер: Джон Форд
Жанр: драма
Продолжительность: 01:22:56
Год выпуска: 1966
В ролях: Энн Бэнкрофт, Сью Лайон, Маргарет Лейтон, Флора Робсон, Милдред Даннок, Бетти Филд, Анна Ли, Эдди Альберт, Майк Мазурки, Вуди Строуд
Описание:
1935 год, Китай. Орда монгольских бандитов под предводительством Тунга Хана окружила миссию, возглавляемую Агатой Эндрюс. Кроме нее в заложницах оказались еще пять женщин, одна из которых беременна. Вскоре в миссию прибывает доктор Картрайт, которая соглашается стать наложницей Тунга Хана ради освобождения других женщин…
Экранизация по произведению Норы Лофтс.



Видео: [email protected] (2.25:1) 25.00 fps, MPEG4 AVC (x264) , 2125 kbps avg, 0.274 bit/pixel

Аудио #1: Русский: 48 kHz, AC3 Dolby Digital, 2/0 (L,R) ch, ~192 kbps [профессиональный (многоголосый, закадровый)]
Аудио #2: Английский: 48 kHz, AC3 Dolby Digital, 2/0 (L,R) ch, ~192 kbps [Оригинал]

General
Complete name : D:\7.Women_ 1966.DVDRip-AVC.mkv
Format : Matroska
File size : 1.45 GiB
Duration : 1h 22mn
Overall bit rate : 2 511 Kbps
Encoded date : UTC 2018-11-04 12:13:58
Writing application : mkvmerge v9.3.1 ('Mask Machine') 64bit
Writing library : libebml v1.3.4 + libmatroska v1.4.5

Video
ID : 1
Format : AVC
Format/Info : Advanced Video Codec
Format profile :
Format settings, CABAC : Yes
Format settings, ReFrames : 8 frames
Format settings, GOP : N=1
Codec ID : V_MPEG4/ISO/AVC
Duration : 1h 22mn
Bit rate : 2 125 Kbps
Width : 704 pixels
Height : 440 pixels
Display aspect ratio : 2.25:1
Original display aspect ratio : 2.25:1
Frame rate : 25.000 fps
Color space : YUV
Chroma subsampling : 4:2:0
Bit depth : 8 bits
Scan type : Progressive
Bits/(Pixel*Frame) : 0.274
Stream size : 1.20 GiB (83%)
Title : Rip by AndreSweet
Writing library : x264 core 148 r2638 7599210
Encoding settings : cabac=1 / ref=8 / deblock=1:-1:-1 / analyse=0x3:0x113 / me=umh / subme=7 / psy=1 / psy_rd=1.00:0.20 / mixed_ref=1 / me_range=16 / chroma_me=1 / trellis=2 / 8x8dct=1 / cqm=0 / deadzone=21,11 / fast_pskip=0 / chroma_qp_offset=-3 / threads=6 / lookahead_threads=1 / sliced_threads=0 / nr=0 / decimate=0 / interlaced=0 / bluray_compat=0 / constrained_intra=0 / bframes=3 / b_pyramid=2 / b_adapt=2 / b_bias=0 / direct=3 / weightb=1 / open_gop=0 / weightp=2 / keyint=250 / keyint_min=25 / scenecut=40 / intra_refresh=0 / rc_lookahead=50 / rc=2pass / mbtree=1 / bitrate=2125 / ratetol=1.0 / qcomp=0.60 / qpmin=0 / qpmax=69 / qpstep=4 / cplxblur=20.0 / qblur=0.5 / vbv_maxrate=14000 / vbv_bufsize=14000 / nal_hrd=none / filler=0 / ip_ratio=1.40 / aq=1:1.00
Language : English

Audio #1
ID : 2
Format : AC-3
Format/Info : Audio Coding 3
Mode extension : CM (complete main)
Codec ID : A_AC3
Duration : 1h 22mn
Bit rate mode : Constant
Bit rate : 192 Kbps
Channel(s) : 2 channels
Channel positions : Front: L R
Sampling rate : 48.0 KHz
Bit depth : 16 bits
Stream size : 114 MiB (8%)
Title : Профессиональный (многоголосый)
Language : Russian

Audio #2
ID : 3
Format : AC-3
Format/Info : Audio Coding 3
Mode extension : CM (complete main)
Codec ID : A_AC3
Duration : 1h 22mn
Bit rate mode : Constant
Bit rate : 192 Kbps
Channel(s) : 2 channels
Channel positions : Front: L R
Sampling rate : 48.0 KHz
Bit depth : 16 bits
Stream size : 114 MiB (8%)
Title : Original
Language : English














   Похожие торренты   Торрент   Размер 
В этой теме нет новых непрочитанных сообщений. 7 женщин / 7 Women (1966) DVDRip-AVC | P

0 | 0

1.45 ГБ

В этой теме нет новых непрочитанных сообщений. 8 1/2 женщин / 8 ½ Women / Eight and a Half Women (1999) DVDRip

16 | 8

1.38 ГБ

В этой теме нет новых непрочитанных сообщений. Мужчина, который любил женщин / The Man Who Loved Women (1983) DVDRip

58 | 6

1.46 ГБ

В этой теме нет новых непрочитанных сообщений. Зверь, который убивал женщин / The Beast That Killed Women (1965) DVDRip

3 | 5

823.11 МБ

В этой теме нет новых непрочитанных сообщений. Путешествие на планету доисторических женщин / Voyage to the Planet of Prehistoric Women (1968) DVDRip | L1

372 | 114

1.46 ГБ

В этой теме нет новых непрочитанных сообщений. Как я научился любить женщин / Come imparai ad amare le donne (1966) DVDRip | L1

280 | 23

1.1 ГБ

В этой теме нет новых непрочитанных сообщений. 8 1/2 женщин / 8 1/2 Women (1999) DVD9 | P

11 | 1

5.19 ГБ




Вы не можете начинать темы
Вы не можете отвечать на сообщения
Вы не можете редактировать свои сообщения
Вы не можете удалять свои сообщения
Вы не можете добавлять вложения

Перейти:  
Для Мосгорсуда, Роскомнадзора и рекламодателей: mosgorsud-torrent[собачка]yandex.ru
 Вход
ppkBB3cker v.2 © 2008-2014 @ PPK
[ Time : 0.038s | 17 Queries | GZIP : Off ]

Торрент трекер RS-torrent.com
cron