img image001 image001 image001 image001 image001 image001 image001 image001 image001 image001 image001 image001 image001 image001 image001 image001
Planets Sun Sun Sun
Статистика раздачи
Автор: mari | Размер: 1.45 ГБ | Добавлен: 06 ноя 2018
Раздают: 158    Качают: 12
Скачать торрент
Скачать торрент

СообщениеДобавлено: 06 ноя 2018 

Мег: Монстр глубины / The Meg


Перевод: Профессиональный (полное дублирование) iTunes, субтитры: отсутствуют
Формат: HDRip-AVC, MKV, H.264, AC3
Страна: Китай, США
Режиссер: Джон Тёртлтауб
Жанр: ужасы, фантастика, боевик, триллер
Продолжительность: 01:52:04
Год выпуска: 2018
В ролях: Джейсон Стэйтем, Ли Бинбин, Рэйн Уилсон, Клифф Кёртис, Уинстон Чао, Шуя Софиа Цай, Руби Роуз, Пейдж Кеннеди, Роберт Тейлор, Оулавюр Дарри Оулафссон

Описание: Глубоководный батискаф, осуществляющий наблюдение в рамках международной программы по изучению подводной жизни, был атакован огромным существом, которое все считали давно вымершим. Неисправный аппарат теперь лежит на дне глубочайшей впадины Тихого океана... с оказавшимся в ловушке экипажем. Их время на исходе. Китайская океанограф-новатор Суинь вопреки желанию своей дочери зовет спасателя-подводника Джонаса Тейлора, чтобы тот помог спасти команду и океан от невиданной угрозы - доисторической 23-метровой акулы, мегалодона. Никто и подумать не мог, что много лет назад Тейлор уже сталкивался с этим чудовищным созданием.



Видео: 1024x432 (2.40:1), 23.976 fps, AVC MPEG4 (x264), , ~1455 kbps avg, 0.137 bit/pixel
Аудио: 48 kHz, AC3 Dolby Digital, 3/2 (L,C,R,l,r) + LFE ch, ~384 kbps

General
Unique ID : 317845700626416262372577256845664607937 (0xEF1EDAF1DE41418D3D72C409F3105EC1)
Complete name : C:\Users\123\Desktop\The.Meg.2018.HDRip-AVC_[tfile.ru].mkv
Format : Matroska
Format version : Version 4 / Version 2
File size : 1.45 GiB
Duration : 1h 53mn
Overall bit rate mode : Constant
Overall bit rate : 1 839 Kbps
Movie name : The Meg 2018 from селезень
Encoded date : UTC 2018-11-05 10:24:59
Writing application : Lavf56.36.100
Writing library : Lavf56.36.100

Video
ID : 2
Format : AVC
Format/Info : Advanced Video Codec
Format profile :
Format settings, CABAC : Yes
Format settings, ReFrames : 2 frames
Format settings, GOP : M=1, N=25
Codec ID : V_MPEG4/ISO/AVC
Duration : 1h 53mn
Bit rate mode : Constant
Bit rate : 1 455 Kbps
Width : 1 024 pixels
Height : 432 pixels
Display aspect ratio : 2.40:1
Frame rate mode : Constant
Frame rate : 23.976 fps
Color space : YUV
Chroma subsampling : 4:2:0
Bit depth : 8 bits
Scan type : Progressive
Bits/(Pixel*Frame) : 0.137
Stream size : 1.12 GiB (77%)
Language : English
Default : Yes
Forced : No
DURATION : 01:53:13.620000000
NUMBER_OF_FRAMES : 162884
NUMBER_OF_BYTES : 4242449212
_STATISTICS_WRITING_APP : mkvmerge v28.0.0 ('Voice In My Head') 64-bit
_STATISTICS_WRITING_DATE_UTC : 2018-11-05 10:24:59
_STATISTICS_TAGS : BPS DURATION NUMBER_OF_FRAMES NUMBER_OF_BYTES

Audio
ID : 1
Format : AC-3
Format/Info : Audio Coding 3
Mode extension : CM (complete main)
Format settings, Endianness : Big
Codec ID : A_AC3
Duration : 1h 53mn
Bit rate mode : Constant
Bit rate : 384 Kbps
Channel(s) : 6 channels
Channel positions : Front: L C R, Side: L R, LFE
Sampling rate : 48.0 KHz
Bit depth : 32 bits
Compression mode : Lossy
Stream size : 311 MiB (21%)
Title : iTunes
Language : Russian
Default : Yes
Forced : No
DURATION : 01:53:12.544000000
NUMBER_OF_FRAMES : 212267
NUMBER_OF_BYTES : 326042112
_STATISTICS_WRITING_APP : mkvmerge v28.0.0 ('Voice In My Head') 64-bit
_STATISTICS_WRITING_DATE_UTC : 2018-11-05 10:24:59
_STATISTICS_TAGS : BPS DURATION NUMBER_OF_FRAMES NUMBER_OF_BYTES












   Похожие торренты   Торрент   Размер 
В этой теме нет новых непрочитанных сообщений. Мег: Монстр глубины / The Meg (Джон Тёртлтауб) [2018, ужасы, фантастика, боевик, триллер, HDRip] DUB

264 | 11

1.46 ГБ

В этой теме нет новых непрочитанных сообщений. Мег: Монстр глубины / The Meg (Джон Тёртлтауб) [2018, фантастика, ужасы, триллер, боевик, HDTVRip] DUB

167 | 8

1.37 ГБ

В этой теме нет новых непрочитанных сообщений. Мег: Монстр глубины / The Meg (Джон Тёртлтауб) [2018, ужасы, фантастика, боевик, триллер, TeleSynch] DUB

892 | 20

1.37 ГБ

В этой теме нет новых непрочитанных сообщений. Мег: Монстр глубины / The Meg (Джон Тёртлтауб) [2018, ужасы, фантастика, боевик, триллер, HDTVRip] MVO

324 | 9

1.37 ГБ

В этой теме нет новых непрочитанных сообщений. Вирус / Virus (Джон Бруно) [1999, ужасы, фантастика, боевик, триллер, BDRip-AVC] DUB / Фантастика

10 | 0

745.74 МБ

В этой теме нет новых непрочитанных сообщений. Нападение акул на Нью-Джерси / Jersey Shore Shark Attack (Джон Шеппирд ) [2012, ужасы, фантастика, боевик, триллер, комедия, HDRip] MVO / Мистика

9 | 0

1.45 ГБ

В этой теме нет новых непрочитанных сообщений. Тихое место / A Quiet Place (Джон Красински) [2018, триллер, фантастика, драма, ужасы, HDRip] DUB / Мистика

71 | 7

1.4 ГБ




Вы не можете начинать темы
Вы не можете отвечать на сообщения
Вы не можете редактировать свои сообщения
Вы не можете удалять свои сообщения
Вы не можете добавлять вложения

Перейти:  
Для Мосгорсуда, Роскомнадзора и рекламодателей: mosgorsud-torrent[собачка]yandex.ru
 Вход
ppkBB3cker v.2 © 2008-2014 @ PPK
[ Time : 0.022s | 17 Queries | GZIP : Off ]

Торрент трекер RS-torrent.com
cron