img image001 image001 image001 image001 image001 image001 image001 image001 image001 image001 image001 image001 image001 image001 image001 image001
Planets Sun Sun Sun
Статистика раздачи
Автор: mari | Размер: 742.65 МБ | Добавлен: 24 июл 2018
Раздают: 62    Качают: 0
Скачать торрент
Скачать торрент

СообщениеДобавлено: 24 июл 2018 

Рассказ / The Tale

Перевод: Профессиональный (многоголосый, закадровый) Кравец-Рекордз
Субтитры: Отсутствуют
Формат: WEB-DLRip-AVC, MKV, H.264, AAC
Страна: США, Германия
Режиссер: Дженнифер Фокс
Жанр: триллер, драма, детектив
Продолжительность: 01:54:58
Год выпуска: 2018

В ролях: Лора Дерн, Изабель Нелисс, Джейсон Риттер, Элизабет Дебики, Эллен Бёрстин, Коммон, Челси Элден, Джон Хёрд, Фрэнсис Конрой, Лаура Аллен

Описание: Пожилая мать успешной документалистки Дженнифер находит её ранний рассказ — исповедь 13-летней девочки о связи с двумя взрослыми тренерами. Несмотря на своё спокойное отношение к произошедшему, из-за переживаний матери Дженнифер решает встретиться с участниками событий и выяснить подробности.



Видео: 768x424 (16:9), 23.976 fps, AVC (H.264), ~1829 kbps, 0.106 bit/pixel
Аудио: 48 kHz, AАС-HE, 2 ch, ~76 kbps

Формат : Matroska
Версия формата : Version 4 / Version 2
Размер файла : 743 Мбайт
Продолжительность : 1 ч. 54 м.
Общий поток : 903 Кбит/сек
Дата кодирования : UTC 2018-07-24 06:02:15
Программа кодирования : mkvmerge v15.0.0 ('Duel with the Devil') 64-bit
Библиотека кодирования : libebml v1.3.5 + libmatroska v1.4.5

Видео
Идентификатор : 1
Формат : AVC
Формат/Информация : Advanced Video Codec
Профиль формата :
Параметр CABAC формата : Да
Параметр RefFrames формата : 10 кадров
Идентификатор кодека : V_MPEG4/ISO/AVC
Продолжительность : 1 ч. 54 м.
Битрейт : 829 Кбит/сек
Ширина : 768 пикселей
Высота : 424 пикселя
Соотношение сторон : 16:9
Режим частоты кадров : Постоянный
Частота кадров : 23,976 (24000/1001) кадра/сек
Цветовое пространство : YUV
Субдискретизация насыщенности : 4:2:0
Битовая глубина : 8 бит
Тип развёртки : Прогрессивная
Бит/(Пиксели*Кадры) : 0.106
Размер потока : 679 Мбайт (91%)
Библиотека кодирования : x264 core 152 r2851kMod ba24899
Настройки программы : cabac=1 / ref=10 / deblock=1:-3:-3 / analyse=0x3:0x133 / me=umh / subme=11 / psy=1 / fade_compensate=0.00 / psy_rd=1.00:0.15 / mixed_ref=1 / me_range=32 / chroma_me=1 / trellis=2 / 8x8dct=1 / cqm=0 / deadzone=21,11 / fast_pskip=0 / chroma_qp_offset=-3 / threads=6 / lookahead_threads=1 / sliced_threads=0 / nr=0 / decimate=0 / interlaced=0 / bluray_compat=0 / constrained_intra=0 / bframes=10 / b_pyramid=2 / b_adapt=2 / b_bias=0 / direct=3 / weightb=1 / open_gop=0 / weightp=2 / keyint=240 / keyint_min=23 / scenecut=40 / intra_refresh=0 / rc_lookahead=40 / rc=2pass / mbtree=1 / bitrate=829 / ratetol=1.0 / qcomp=0.60 / qpmin=0 / qpmax=69 / qpstep=4 / cplxblur=20.0 / qblur=0.5 / vbv_maxrate=50000 / vbv_bufsize=62500 / nal_hrd=none / filler=0 / ip_ratio=1.40 / aq=3:1.00
Default : Да
Forced : Нет

Аудио
Идентификатор : 2
Формат : AAC
Формат/Информация : Advanced Audio Codec
Профиль формата : HE-AAC / LC
Идентификатор кодека : A_AAC
Продолжительность : 1 ч. 54 м.
Битрейт : 76,0 Кбит/сек
Каналы : 2 канала
Расположение каналов : Front: L R
Частота : 48,0 КГц / 24,0 КГц
Частота кадров : 23,438 кадра/сек (1024 SPF)
Метод сжатия : С потерями
Задержка видео : 31 мс.
Размер потока : 62,5 Мбайт (8%)
Язык : Russian
Default : Да
Forced : Нет












   Похожие торренты   Торрент   Размер 
В этой теме нет новых непрочитанных сообщений. Рассказ / The Tale (Дженнифер Фокс) [2018, триллер, драма, детектив, WEB-DLRip] MVO

97 | 5

1.45 ГБ

В этой теме нет новых непрочитанных сообщений. Охота на воров / Den of Thieves (Кристиан Гьюдгэст) [2018, боевик, триллер, драма, криминал, детектив, WEB-DLRip] DUB

682 | 6

1.46 ГБ

В этой теме нет новых непрочитанных сообщений. Охота на воров / Den of Thieves (Кристиан Гьюдгэст) [2018, боевик, триллер, драма, криминал, детектив, WEB-DLRip] DUB

149 | 38

2.18 ГБ

В этой теме нет новых непрочитанных сообщений. Охота на воров / Den of Thieves (Кристиан Гьюдгэст) [2018, боевик, триллер, драма, криминал, детектив, WEB-DLRip] DUB

310 | 55

2.18 ГБ

В этой теме нет новых непрочитанных сообщений. Охота на воров / Den of Thieves (Кристиан Гьюдгэст) [2018, боевик, триллер, драма, криминал, детектив, WEB-DLRip] DUB

488 | 28

1.46 ГБ

В этой теме нет новых непрочитанных сообщений. Охота на воров / Den of Thieves (Кристиан Гьюдгэст) [2018, боевик, триллер, драма, криминал, детектив, WEB-DLRip-AVC] DUB

216 | 10

1.46 ГБ

В этой теме нет новых непрочитанных сообщений. Сверхъестественное, 13 сезон 1-22 серии / Supernatural [LostFilm] (Роберт Сингер, Филип Сгриккиа) [2017-2018, ужасы, фэнтези, триллер, драма, детектив, WEB-DLRip, P]

10 | 5

9.56 ГБ




Вы не можете начинать темы
Вы не можете отвечать на сообщения
Вы не можете редактировать свои сообщения
Вы не можете удалять свои сообщения
Вы не можете добавлять вложения

Перейти:  
Для Мосгорсуда, Роскомнадзора и рекламодателей: mosgorsud-torrent[собачка]yandex.ru
 Вход
ppkBB3cker v.2 © 2008-2014 @ PPK
[ Time : 0.038s | 19 Queries | GZIP : Off ]

Торрент трекер RS-torrent.com
cron