img image001 image001 image001 image001 image001 image001 image001 image001 image001 image001 image001 image001 image001 image001 image001 image001
Planets Sun Sun Sun
Статистика раздачи
Автор: mari | Размер: 9.91 ГБ | Добавлен: 08 ноя 2018
Раздают: 7    Качают: 3
Скачать торрент
Скачать торрент

СообщениеДобавлено: 08 ноя 2018 

Неуловимые (1-4 серии из 8)

Перевод: Не требуется, cубтитры: отсутствуют
Формат: HDTV 1080p, MKV, H.264, AC3
Страна: Россия
Режиссер: Владимир Виноградов
Жанр: комедия, приключения, детектив, история
Всего серий: 8
Продолжительность: 4 x ~ 00:50:00
Год выпуска: 2017

В ролях: Оксана Фандера, Юрий Стоянов, Сергей Газаров, Александр Лыков, Евгений Березин, Владислав Тирон, Таисия Шипилова, Максим Емельянов, Андрей Бурлаченко, Александр Фисенко, Николай Сороканов, Юрий Анпилогов, Оливье Сиу, Пьер Бурель, Павел Боровский

Описание: 1958 год. Два легендарных черноморских вора, уходя на пенсию, решают провернуть «ограбление века». Цель – уникальная скрипка работы Антонио Страдивари, подаренная самой королевой Бельгии советскому виртуозу Давиду Ойстраху. Для виртуозного ограбления поезда, в котором перевозят скрипку, матёрые преступники собирают целую команду из молодых умельцев преступного дела. Но советская милиция не дремлет! И вот уже в числе молодых и неуловимых грабителей значится «засланный казачок» – агент под прикрытием Алексей Терентьев по кличке Золотозубый, задача которого схватить всех участников дела с поличным. Однако противостояние воров и милиции внезапно принимает неожиданный оборот, когда в дело вмешивается любовь...

Рейтинг и доп. информация:


Видео: 1920х1080, (16:9), 25 fps, AVC MPEG4 (x264), ~ 7050 kbps avg, 0.136 bit/pixel
Аудио: 48 kHz, АС3, 2/0 (L,R), ~192.00 kbps avg
Внимание! Раздача ведётся путём добавления новых серий. При каждом добавлении создаётся новый торрент.
Чтобы начать докачку новой серии, пользователям необходимо сделать следующее:
1. Остановить скачивание.
2. Удалить старый торрент у себя из клиента (старые серии удалять не надо).
3. Скачать новый торрент и запустить его у себя в клиенте вместо старого, при этом указать клиенту путь в старую папку куда и должно происходить скачивание новых серий. Ваш клиент при этом должен произвести хеширование (проверку) старой папки и будет докачивать только те серии, которых у вас ещё нет. Старые серии при этом не удаляются, а продолжают раздаваться! Eсли вы уже удалили старые серии, то предотвратить повторную закачку старых серий можно, отжав галочку в соответствующих местах при запуске нового торрента.


General
Unique ID : 254390615117319318305937830115564595870 (0xBF61D9AEBD25B226B5BF6827D1C82A9E)
Complete name : E:Запись с твNeulovimye 2018.HDTV 1080p.RG GeneralFilmNeulovimye.s01.e01.2018.HDTV 1080p.by.White Smoke.R.G.Generalfilm.mkv
Format : Matroska
Format version : Version 4 / Version 2
File size : 2.36 GiB
Duration : 46 min
Overall bit rate mode : Constant
Overall bit rate : 7 199 kb/s
Movie name : Neulovimye.s01.e01.2018.HDTV 1080p.by.White Smoke.R.G.Generalfilm.mkv
Encoded date : UTC 2018-11-08 00:07:49
Writing application : mkvmerge v6.8.0 ('Theme for Great Cities') 64bit built on Mar 2 2014 21:34:26
Writing library : libebml v1.3.0 + libmatroska v1.4.1
Cover : Yes
Attachments : cover.jpg

Video
ID : 1
Format : AVC
Format/Info : Advanced Video Codec
Format profile :
Format settings, CABAC : Yes
Format settings, ReFrames : 3 frames
Format settings, GOP : M=3, N=33
Codec ID : V_MPEG4/ISO/AVC
Duration : 46 min
Bit rate mode : Constant
Bit rate : 7 051 kb/s
Width : 1 920 pixels
Height : 1 080 pixels
Display aspect ratio : 16:9
Frame rate mode : Constant
Frame rate : 25.000 FPS
Standard : PAL
Color space : YUV
Chroma subsampling : 4:2:0
Bit depth : 8 bits
Scan type : Progressive
Bits/(Pixel*Frame) : 0.136
Stream size : 2.25 GiB (95%)
Default : Yes
Forced : No
Color range : Limited
Color primaries : BT.709
Transfer characteristics : BT.709
Matrix coefficients : BT.709

Audio
ID : 2
Format : AC-3
Format/Info : Audio Coding 3
Mode extension : CM (complete main)
Format settings, Endianness : Big
Codec ID : A_AC3
Duration : 46 min
Bit rate mode : Constant
Bit rate : 192 kb/s
Channel(s) : 2 channels
Channel positions : Front: L R
Sampling rate : 48.0 kHz
Frame rate : 31.250 FPS (1536 spf)
Compression mode : Lossy
Stream size : 64.4 MiB (3%)
Default : Yes
Forced : No














   Похожие торренты   Торрент   Размер 
В этой теме нет новых непрочитанных сообщений. Неуловимые (1-6 серии из 8) (Владимир Виноградов) [2017, комедия, приключения, детектив, история, HDTV 1080p]

18 | 10

14.74 ГБ

В этой теме нет новых непрочитанных сообщений. Неуловимые (1-8 серии из 8) (Владимир Виноградов) [2017, комедия, приключения, детектив, история, HDTV 1080p]

30 | 15

18.29 ГБ

В этой теме нет новых непрочитанных сообщений. Неуловимые (1-8 серии из 8) (Владимир Виноградов) [2017, комедия, приключения, детектив, история, WEB-DL 1080p]

58 | 17

14.6 ГБ

В этой теме нет новых непрочитанных сообщений. Неуловимые (1-2 серии из 8) (Владимир Виноградов) [2017, комедия, приключения, детектив, история, WEBRip 1080p]

6 | 0

4.12 ГБ

В этой теме нет новых непрочитанных сообщений. Неуловимые (1-4 серии из 8) (Владимир Виноградов) [2017, комедия, приключения, детектив, история, HDTVRip-AVC]

26 | 7

3.02 ГБ

В этой теме нет новых непрочитанных сообщений. Неуловимые (1-2 серии из 8) (Владимир Виноградов) [2017, комедия, приключения, детектив, история, WEBRip]

14 | 1

1.12 ГБ

В этой теме нет новых непрочитанных сообщений. Неуловимые (1-6 серии из 8) (Владимир Виноградов) [2017, комедия, приключения, детектив, история, HDTVRip]

19 | 3

3.48 ГБ




Вы не можете начинать темы
Вы не можете отвечать на сообщения
Вы не можете редактировать свои сообщения
Вы не можете удалять свои сообщения
Вы не можете добавлять вложения

Перейти:  
Для Мосгорсуда, Роскомнадзора и рекламодателей: mosgorsud-torrent[собачка]yandex.ru
 Вход
ppkBB3cker v.2 © 2008-2014 @ PPK
[ Time : 0.033s | 16 Queries | GZIP : Off ]

Торрент трекер RS-torrent.com
cron