img image001 image001 image001 image001 image001 image001 image001 image001 image001 image001 image001 image001 image001 image001 image001 image001
Planets Sun Sun Sun
Статистика раздачи
Автор: mari | Размер: 1.47 ГБ | Добавлен: 08 ноя 2018
Раздают: 7    Качают: 0
Скачать торрент
Скачать торрент

СообщениеДобавлено: 08 ноя 2018 

Неуловимые (1-2 серии из 8)

Перевод: Не требуется, cубтитры: отсутствуют
Формат: WEBRip-AVC, MKV, H.264, AC3
Страна: Россия
Режиссер: Владимир Виноградов
Жанр: комедия, приключения, детектив, история
Всего серий: 8
Продолжительность: 2 х ~ 00:48:00
Год выпуска: 2017

В ролях: Оксана Фандера, Юрий Стоянов, Сергей Газаров, Александр Лыков, Евгений Березин, Владислав Тирон, Таисия Шипилова, Максим Емельянов, Андрей Бурлаченко, Александр Фисенко, Николай Сороканов, Юрий Анпилогов, Оливье Сиу, Пьер Бурель, Павел Боровский

Описание: Все газеты мира облетает весть, что Давид Ойстрах отыграет концерт на уникальном инструменте в родной Одессе! Из Москвы скрипку перевозят в специальном вагоне поезда. Два легендарных черноморских вора Лаврик и Кобзарь решаются на «ограбление века»: они задумали похитить подарок королевы. Чтобы провернуть задуманное, опытные мастера собирают целую команду из молодых умельцев воровского дела. В это же время на родину после почти двадцати лет отсутствия возвращается красавица и авантюристка, некогда настоящая королева околокриминального мира – Фирочка Танцорка. Операция принимает неожиданный поворот, когда в дело вмешивается любовь.

Рейтинг и доп. информация:


Видео: 1024x576 (16:9), 25 fps, AVC MPEG-4 (x264), ~ 2000 kbps , 0.136 bit/pixel
Аудио: 48 kHz, АС3, 2/0 (L,R), ~192.00 kbps avg
Внимание! Раздача ведётся путём добавления новых серий. При каждом добавлении создаётся новый торрент.
Чтобы начать докачку новой серии, пользователям необходимо сделать следующее:
1. Остановить скачивание.
2. Удалить старый торрент у себя из клиента (старые серии удалять не надо).
3. Скачать новый торрент и запустить его у себя в клиенте вместо старого, при этом указать клиенту путь в старую папку куда и должно происходить скачивание новых серий. Ваш клиент при этом должен произвести хеширование (проверку) старой папки и будет докачивать только те серии, которых у вас ещё нет. Старые серии при этом не удаляются, а продолжают раздаваться! Eсли вы уже удалили старые серии, то предотвратить повторную закачку старых серий можно, отжав галочку в соответствующих местах при запуске нового торрента.


Общее
Уникальный идентификатор : 195689163819312896020434277718280317768 (0x93385CAE996105A2B8FD07941FC72B48)
Полное имя : C:\Неуловимые.(2018).WEB-DLRip.(AVC).Files-x\01.Неуловимые.(2018).WEB-DLRip.(AVC).by.Серый1779.Files-x.mkv
Формат : Matroska
Версия формата : Version 2
Размер файла : 745 Мбайт
Продолжительность : 47 м. 29 с.
Общий поток : 2193 Кбит/сек
Дата кодирования : UTC 2018-11-06 21:39:28
Программа кодирования : mkvmerge v7.8.0 ('River Man') 32bit built on Apr 3 2015 12:11:22
Библиотека кодирования : libebml v1.3.1 + libmatroska v1.4.2

Видео
Идентификатор : 1
Формат : AVC
Формат/Информация : Advanced Video Codec
Профиль формата :
Настройки формата : CABAC / 9 Ref Frames
Параметр CABAC формата : Да
Параметр RefFrames формата : 9 кадров
Идентификатор кодека : V_MPEG4/ISO/AVC
Продолжительность : 47 м. 30 с.
Битрейт : 2000 Кбит/сек
Ширина : 1024 пикселя
Высота : 576 пикселей
Соотношение сторон : 16:9
Режим частоты кадров : Постоянный
Частота кадров : 25,000 кадров/сек
Цветовое пространство : YUV
Субдискретизация насыщенности : 4:2:0
Битовая глубина : 8 бит
Тип развёртки : Прогрессивная
Бит/(Пиксели*Кадры) : 0.136
Размер потока : 665 Мбайт (89%)
Библиотека кодирования : x264 core 146 r2538 121396c
Настройки программы : cabac=1 / ref=9 / deblock=1:-2:-1 / analyse=0x3:0x133 / me=umh / subme=9 / psy=1 / psy_rd=1.00:0.15 / mixed_ref=1 / me_range=32 / chroma_me=1 / trellis=2 / 8x8dct=1 / cqm=0 / deadzone=21,11 / fast_pskip=0 / chroma_qp_offset=-3 / threads=18 / lookahead_threads=3 / sliced_threads=0 / nr=0 / decimate=1 / interlaced=0 / bluray_compat=0 / constrained_intra=0 / bframes=9 / b_pyramid=2 / b_adapt=2 / b_bias=0 / direct=1 / weightb=1 / open_gop=0 / weightp=2 / keyint=250 / keyint_min=25 / scenecut=40 / intra_refresh=0 / rc=2pass / mbtree=0 / bitrate=2000 / ratetol=1.0 / qcomp=0.60 / qpmin=0 / qpmax=69 / qpstep=4 / cplxblur=20.0 / qblur=0.5 / ip_ratio=1.40 / pb_ratio=1.30 / aq=2:1.00
Default : Да
Forced : Нет
Цветовой диапазон : Limited
Основные цвета : BT.709
Характеристики трансфера : BT.709
Коэффициенты матрицы : BT.709

Аудио
Идентификатор : 2
Формат : AC-3
Формат/Информация : Audio Coding 3
Коммерческое название : Dolby Digital
Идентификатор кодека : A_AC3
Продолжительность : 47 м. 29 с.
Вид битрейта : Постоянный
Битрейт : 192 Кбит/сек
Каналы : 2 канала
Channel layout : L R
Частота : 48,0 КГц
Частота кадров : 31,250 кадров/сек (1536 SPF)
Битовая глубина : 16 бит
Метод сжатия : С потерями
Размер потока : 65,2 Мбайт (9%)
ServiceKind/String : Complete Main
Default : Да
Forced : Нет








   Похожие торренты   Торрент   Размер 
В этой теме нет новых непрочитанных сообщений. Неуловимые (1-2 серии из 8) (Владимир Виноградов) [2017, комедия, приключения, детектив, история, WEBRip]

14 | 1

1.12 ГБ

В этой теме нет новых непрочитанных сообщений. Неуловимые (1-2 серии из 8) (Владимир Виноградов) [2017, комедия, приключения, детектив, история, WEBRip 1080p]

6 | 0

4.12 ГБ

В этой теме нет новых непрочитанных сообщений. Неуловимые (1-2 серии из 8) (Владимир Виноградов) [2017, комедия, приключения, детектив, история, WEBRip 720p]

4 | 1

2.48 ГБ

В этой теме нет новых непрочитанных сообщений. Неуловимые (1-8 серии из 8) (Владимир Виноградов) [2017, комедия, приключения, детектив, история, HDTVRip-AVC]

82 | 24

5.98 ГБ

В этой теме нет новых непрочитанных сообщений. Неуловимые (1-6 серии из 8) (Владимир Виноградов) [2017, комедия, приключения, детектив, история, HDTVRip-AVC]

13 | 2

4.49 ГБ

В этой теме нет новых непрочитанных сообщений. Неуловимые (1-6 серии из 8) (Владимир Виноградов) [2017, комедия, приключения, детектив, история, HDTVRip]

19 | 3

3.48 ГБ

В этой теме нет новых непрочитанных сообщений. Неуловимые (1-6 серии из 8) (Владимир Виноградов) [2017, комедия, приключения, детектив, история, SATRip]

45 | 12

3.79 ГБ




Вы не можете начинать темы
Вы не можете отвечать на сообщения
Вы не можете редактировать свои сообщения
Вы не можете удалять свои сообщения
Вы не можете добавлять вложения

Перейти:  
Для Мосгорсуда, Роскомнадзора и рекламодателей: mosgorsud-torrent[собачка]yandex.ru
 Вход
ppkBB3cker v.2 © 2008-2014 @ PPK
[ Time : 0.033s | 16 Queries | GZIP : Off ]

Торрент трекер RS-torrent.com
cron