img image001 image001 image001 image001 image001 image001 image001 image001 image001 image001 image001 image001 image001 image001 image001 image001
Planets Sun Sun Sun
Статистика раздачи
Автор: mari | Размер: 21.25 ГБ | Добавлен: 07 ноя 2018
Раздают: 8    Качают: 51
Скачать торрент
Скачать торрент

СообщениеДобавлено: 07 ноя 2018 

Фитнес (1-19 серии из 20)

Перевод: Не требуется, cубтитры: отсутствуют
Формат: WEBRip 1080p, MKV, H.264, AC3
Страна: Россия
Режиссер: Антон Маслов
Жанр: комедия
Всего серий: 20
Продолжительность: 19 х ~ 00:26:00
Год выпуска: 2018

В ролях: Софья Зайка, Михаил Трухин, Татьяна Храмова (II), Роман Курцын, Алексей Демидов, Борис Дергачев, Марианна Шульц, Лёля Баранова, Анна Лауренская, Татьяна Сомова, Мария Малиновская, Александр Семчев, Данила Якушев, Евгений Михеев, Дмитрий Чеботарёв, Елизавета Мартинес, Ирина Бякова, Андрей Пынзару, Евгений Грицков

Описание: «Быстрее, выше, сильнее»… В мире Аси такому девизу не место. Так же, как и комплексам из-за лишнего веса. Тем более, есть дела поважнее – подготовка к свадьбе в самом разгаре. Беспечный мир Аси рушится в одну секунду: девушка узнает, что любимого давно не устраивает ее фигура. А лучшие подруги не стесняются злословить о пышных формах за ее спиной. Восстанавливать веру в себя Ася отправляется в спортклуб. Вот только тренировки и программа по снижению веса оказываются не по карману начинающей спортсменке. Выход один – стать сотрудником фитнеса и заниматься бесплатно. Так у Аси появляется новая работа, знакомства и, главное, стимул доказать подругам, бывшему и всему миру, что «невозможное возможно».

Рейтинг и доп. информация:


Видео: 1920x1080 (16:9), 23,976 fps, AVC MPEG-4 (x264), [email protected] ~ 6300 kbps , 0.127 bit/pixel
Аудио: 48 kHz, АС3, 2/0 (L,R), ~192.00 kbps avg
Внимание! Раздача ведётся путём добавления новых серий. При каждом добавлении создаётся новый торрент.
Чтобы начать докачку новой серии, пользователям необходимо сделать следующее:
1. Остановить скачивание.
2. Удалить старый торрент у себя из клиента (старые серии удалять не надо).
3. Скачать новый торрент и запустить его у себя в клиенте вместо старого, при этом указать клиенту путь в старую папку куда и должно происходить скачивание новых серий. Ваш клиент при этом должен произвести хеширование (проверку) старой папки и будет докачивать только те серии, которых у вас ещё нет. Старые серии при этом не удаляются, а продолжают раздаваться! Eсли вы уже удалили старые серии, то предотвратить повторную закачку старых серий можно, отжав галочку в соответствующих местах при запуске нового торрента.


Общее
Уникальный идентификатор : 242672004280156254810054254281789713197 (0xB690ED8F7DEA9AC698CD7132BAC6AB2D)
Полное имя : C:\Users\User\Desktop\Новая папка\Fitnes (2018) WEB-DL 1080p. Files-x\01. Fitnes..2018.WEB-DL 1080p. Files-x.mkv
Формат : Matroska
Версия формата : Version 2
Размер файла : 1,24 Гбайт
Продолжительность : 26 м. 46 с.
Общий поток : 6649 Кбит/сек
Дата кодирования : UTC 2018-10-01 10:23:15
Программа кодирования : mkvmerge v7.8.0 ('River Man') 32bit built on Apr 3 2015 12:11:22
Библиотека кодирования : libebml v1.3.1 + libmatroska v1.4.2

Видео
Идентификатор : 1
Формат : AVC
Формат/Информация : Advanced Video Codec
Профиль формата : [email protected]
Настройки формата : CABAC / 4 Ref Frames
Параметр CABAC формата : Да
Параметр RefFrames формата : 4 кадра
Идентификатор кодека : V_MPEG4/ISO/AVC
Продолжительность : 26 м. 46 с.
Битрейт : 6300 Кбит/сек
Ширина : 1920 пикселей
Высота : 1080 пикселей
Соотношение сторон : 16:9
Режим частоты кадров : Постоянный
Частота кадров : 23,976 (24000/1001) кадра/сек
Цветовое пространство : YUV
Субдискретизация насыщенности : 4:2:0
Битовая глубина : 8 бит
Тип развёртки : Прогрессивная
Бит/(Пиксели*Кадры) : 0.127
Размер потока : 1,18 Гбайт (95%)
Default : Да
Forced : Нет

Аудио
Идентификатор : 2
Формат : AC-3
Формат/Информация : Audio Coding 3
Коммерческое название : Dolby Digital
Идентификатор кодека : A_AC3
Продолжительность : 26 м. 46 с.
Вид битрейта : Постоянный
Битрейт : 192 Кбит/сек
Каналы : 2 канала
Channel layout : L R
Частота : 48,0 КГц
Частота кадров : 31,250 кадров/сек (1536 SPF)
Битовая глубина : 16 бит
Метод сжатия : С потерями
Размер потока : 36,8 Мбайт (3%)
ServiceKind/String : Complete Main
Default : Да
Forced : Нет








   Похожие торренты   Торрент   Размер 
В этой теме нет новых непрочитанных сообщений. Фитнес (1-11 серии из 20) (Антон Маслов) [2018, комедия, WEBRip 1080p]

7 | 18

12.35 ГБ

В этой теме нет новых непрочитанных сообщений. Фитнес (1-12 серии из 20) (Антон Маслов) [2018, комедия, WEBRip 1080p]

3 | 1

13.47 ГБ

В этой теме нет новых непрочитанных сообщений. Фитнес (1-2 серии из 20) (Антон Маслов) [2018, комедия, WEBRip 1080p]

6 | 2

2.35 ГБ

В этой теме нет новых непрочитанных сообщений. Фитнес (1-20 серии из 20) (Антон Маслов) [2018, комедия, WEBRip 1080p]

10 | 3

22.37 ГБ

В этой теме нет новых непрочитанных сообщений. Фитнес (1-15 серии из 20) (Антон Маслов) [2018, комедия, WEBRip 1080p]

0 | 0

16.8 ГБ

В этой теме нет новых непрочитанных сообщений. Фитнес (1-13 серии из 20) (Антон Маслов) [2018, комедия, WEBRip-AVC]

19 | 22

4.16 ГБ

В этой теме нет новых непрочитанных сообщений. Фитнес (1-13 серии из 20) (Антон Маслов) [2018, комедия, WEBRip-AVC]

25 | 33

3.94 ГБ




Вы не можете начинать темы
Вы не можете отвечать на сообщения
Вы не можете редактировать свои сообщения
Вы не можете удалять свои сообщения
Вы не можете добавлять вложения

Перейти:  
Для Мосгорсуда, Роскомнадзора и рекламодателей: mosgorsud-torrent[собачка]yandex.ru
 Вход
ppkBB3cker v.2 © 2008-2014 @ PPK
[ Time : 0.025s | 18 Queries | GZIP : Off ]

Торрент трекер RS-torrent.com
cron